#TITLE:Pre-Parade;
#SUBTITLE:Toradora!;
#ARTIST:Rie Kugimiya;
#TITLETRANSLIT:;
#SUBTITLETRANSLIT:;
#ARTISTTRANSLIT:;
#CREDIT:;
#BANNER:Pre-Parade-Banner.png;
#BACKGROUND:Pre-Parade-bg(1).jpg;
#LYRICSPATH:;
#CDTITLE:;
#MUSIC:Pre-Parade.mp3;
#OFFSET:-0.680;
#SAMPLESTART:54.420;
#SAMPLELENGTH:12.000;
#SELECTABLE:YES;
#BPMS:0.000=160.020;
#STOPS:142.750=0.300
;
#BGCHANGES:0.000=Pre-Parade.avi=1.000=1=1=0,
99999=-nosongbg-=1.000=0=0=0 // don't automatically add -songbackground-
;
// cache tags:
#FIRSTBEAT:0.000;
#LASTBEAT:230.250;
#SONGFILENAME:songs/Pack anime 1/Pre-Parade/Pre-Parade.sm;
#HASMUSIC:1;
#HASBANNER:1;
#MUSICLENGTH:90.077;
// end cache tags

//---------------dance-single - ----------------
#NOTES:
     dance-single:
     :
     Medium:
     9:
     0.695,0.670,0.622,0.133,0.971,370.000,56.000,12.000,0.000,0.000:
1000
0000
0010
0001
0000
0000
1000
0000
0000
1000
0000
0100
0000
0010
0000
1000
,
0000
0000
0001
0000
0000
0000
0100
0000
0000
0110
0000
0000
0000
0000
0000
1000
,
0000
0000
0000
1010
0000
0000
0100
0001
0000
0001
0010
0000
0000
1000
0000
0000
,
0000
1000
0000
0000
0010
0000
0100
0000
0001
0000
1000
0000
0000
0000
0010
0000
,
0000
1000
0000
0010
0000
0100
0000
0000
0010
0000
0000
0000
0200
0000
0000
0000
,
0000
0300
0000
0000
1010
0000
0000
0000
0101
0000
0000
0000
0000
0000
0010
0000
,
0000
0000
0110
0000
0000
0000
0011
0000
0100
0010
0000
0000
0000
1010
0000
0000
,
0000
1000
0000
0000
0100
0000
0010
0000
0001
0000
1000
0000
0000
0000
1000
0000
,
0000
0010
0000
1000
0000
0000
0100
0000
0010
0000
0000
1000
0000
0000
0100
0000
,
0000
1000
0000
0100
0000
0000
1000
0000
0100
0000
1000
0000
0010
0000
1000
0000
,
0010
0000
0000
1000
0000
0000
0010
0000
1000
0000
0001
0000
1000
0000
0010
0000
,
0000
0000
0000
1010
0000
0000
0000
0100
0010
0000
0000
0001
0000
0100
0000
0001
,
0000
0000
0000
0100
0000
0000
0010
0000
1000
0000
0010
0000
0000
1000
0000
1010
,
0000
0000
0000
0100
0000
0001
0000
0000
0100
0000
0010
0000
1000
0000
0010
0000
,
0000
0000
0000
0000
0100
0000
0100
0001
0000
0100
0000
0010
0000
0000
0100
0000
,
0010
0000
0000
1000
0000
1000
0000
0010
0000
1000
0000
0010
1000
0000
0010
0000
,
0000
1000
0000
0010
1000
0000
0001
0000
0100
0000
0010
0000
0100
0010
0000
1000
,
0000
0000
1000
0010
0000
0100
0000
0001
0000
2000
0000
3000
0000
0000
0010
0000
,
0000
0100
0000
0001
0000
0000
0010
0000
0000
0010
0100
0000
0000
0000
0000
0000
,
0100
0000
0001
0000
1000
0000
0001
0000
0100
0010
0000
0000
0000
0000
0010
0000
,
0001
0000
0010
0001
0000
0100
0000
0020
0000
0000
0000
0000
0000
0030
0000
0000
,
0100
0000
0000
0000
0000
0110
0000
0000
0000
1010
0000
1010
0000
0000
0000
0101
,
0000
0000
0000
0000
0110
0000
1001
0000
0220
0000
0000
0330
0000
0000
0000
0000
,
1010
0000
0100
0010
0001
0000
0100
0000
0020
0000
0000
0030
0000
0000
0000
0100
,
0010
0000
0100
0000
0001
0000
0010
0000
0002
0000
0003
0000
0000
0010
0000
1000
,
0000
0000
0000
1000
0000
0001
0000
0100
0000
0010
0000
1000
0000
0010
1000
0000
,
0100
0000
0010
0000
1000
0000
0001
0000
1000
0000
0000
0100
0010
0000
0000
1000
,
0000
0000
1000
0000
0001
0000
0100
0000
0002
0000
0000
1000
0000
0013
0000
0000
,
0000
0000
0001
0010
0101
0000
0000
0110
0000
1010
0000
0000
0100
0000
0110
0000
,
0000
0000
0000
0001
0000
0100
0010
0000
0000
1000
0000
0100
0000
0000
0000
0110
,
0000
1000
0000
0000
0010
0000
0000
0100
0000
0000
0000
0011
0000
0001
0000
0000
,
0110
0000
0000
0000
1000
0010
0000
0000
0000
0110
0000
0110
0000
0000
0000
0000
,
1010
0000
0000
1010
0000
0110
0000
0202
0000
0000
0000
0000
0000
0000
0000
0000
,
0000
0000
0000
0000
0000
0000
0000
0303
,
0000
0000
0001
1000
0110
0000
0010
0000
1000
0010
1000
0000
0000
0010
1000
0000
,
0100
0000
0010
0000
0001
1000
0001
0000
0100
0010
0000
1000
0000
0000
0000
1000
,
0010
0000
1000
0000
0001
0000
0100
0000
0010
1000
0000
0000
0010
0100
0000
0000
,
0001
0000
0100
0000
0001
0000
0100
0000
0010
0000
1000
0000
0010
1000
0000
0000
,
0100
0010
0000
0001
0000
0000
0011
0000
0100
0000
1000
0000
0000
0100
0010
0000
,
0001
0000
0200
0000
0000
0000
0000
0000
0000
0300
0000
0000
1010
0000
0000
0100
,
0001
0000
0100
0010
0000
1000
0010
0000
0100
0001
0000
0100
0010
0000
1000
0000
,
0010
0100
0000
0002
0000
0000
0000
0000
0003
0000
0000
0000
1010
0000
0000
0100
,
0001
0000
0100
0000
0010
0000
0000
0000
0000
0000
0000
1010
0000
0000
0100
0001
,
0100
0000
0010
0100
0000
1010
0010
1000
0000
0100
0000
0000
0011
0000
0011
0100
,
0000
0010
1000
0000
0010
1000
0000
0100
0000
0001
0000
0100
0000
0010
1000
0000
,
1000
0100
0000
0000
0000
1000
1100
0010
,
1000
0000
0100
0000
0001
0000
0100
0010
1000
0000
1010
0000
0100
0000
0001
0000
,
0100
0010
0000
1000
0000
0000
0000
0000
0000
0000
0000
1010
0000
0000
0100
0000
,
0110
0000
0001
0000
0100
0010
1000
0000
0000
0100
0010
0100
0000
0001
1000
0010
,
1000
1000
0000
0100
0000
0000
0000
0000
0000
0000
0000
1000
0000
0000
0010
0000
,
1000
0000
0000
0100
0000
0001
0000
0100
0000
0010
0000
1000
0000
0000
0000
0100
,
0000
0010
0000
0100
0001
0000
0100
0000
0000
1000
0000
0000
1010
0000
0000
0000
,
0100
0001
0000
0100
0010
0000
0000
1000
0000
1000
0000
1010
0000
0000
0000
1010
,
0000
1010
0000
1010
0000
1010
0000
0000
0110
0000
0000
0000
0001
0100
0000
0010
,
0000
1000
0000
0010
0000
0100
0000
0001
0000
0000
1000
0000
0010
0000
0000
0000
,
1000
0000
1000
0010
0000
1000
0000
0100
0000
0000
0010
0000
0100
0000
0000
0000
,
0000
1010
0000
0000
1010
0100
0000
0001
0000
0100
0000
0010
0000
0000
0000
0011
,
0000
0011
0000
0011
0000
0011
0000
0000
0101
0000
0000
0000
0000
0000
0000
0000
;

//---------------dance-single - ----------------
#NOTES:
     dance-single:
     :
     Hard:
     10:
     0.744,0.799,0.999,0.155,0.966,365.000,90.000,14.000,0.000,0.000:
1010
0000
0000
0101
0000
0101
0000
0000
1010
0000
1010
0000
1010
0000
1010
0000
,
1010
0000
0101
0000
0000
0000
0110
0000
0000
1010
0000
0000
0000
0000
0110
0000
,
0000
0101
0000
0000
0000
0110
0000
0000
1010
0000
0000
0000
0110
0000
0000
0000
,
0101
0000
0000
0000
0011
0000
0011
0000
0100
0010
0000
1000
0000
0000
1010
0000
,
0000
0100
0000
0001
0000
0100
0000
0000
1010
0000
0000
0000
0100
0000
0000
0000
,
0000
0000
0000
2200
0000
3300
0000
0000
0220
0000
0330
0000
0000
0000
0110
0000
,
0000
0110
0110
0000
0000
0000
0110
0100
0010
0000
0000
1010
0000
0000
0000
0000
,
1010
0000
0000
0000
0100
0001
0000
0100
0000
0010
0000
1000
0000
0000
1010
0000
,
0000
0100
0001
0000
0000
0100
0010
0000
1000
0000
0000
1010
0000
0000
0000
0000
,
1000
0001
1000
0001
1000
0001
1000
0110
,
0000
0100
0010
0100
0010
0100
0010
0100
,
0000
0000
0110
0000
0000
1000
0000
0001
0000
1000
0000
0010
0000
0100
0000
0010
,
0000
0000
1000
0000
0001
1000
0000
0001
0010
0100
0000
0010
1000
0000
0001
0000
,
0000
1000
0000
0000
1000
0000
1000
0010
0000
1000
0000
1000
0000
0010
0000
1000
,
0000
0000
1000
0000
0000
1000
0010
0000
1000
0000
1000
0000
0000
1000
0010
0000
,
0000
0000
0000
1000
0000
1000
0000
1000
0000
0010
0000
1000
0000
0001
0000
1000
,
0000
0010
0000
0100
0010
1000
0000
0010
1000
0010
0000
1000
0100
0000
0001
0000
,
1000
0000
0010
0000
1000
0000
1000
0000
0000
0101
0000
0000
0000
0000
0100
0000
,
0001
0000
1000
0000
0010
0000
0000
0000
1000
0000
0000
0000
0000
0000
0000
1010
,
0000
0000
0100
0001
0000
1000
0000
0010
0000
1000
0000
0000
0000
0000
1000
0000
,
0010
0000
1000
0010
0000
1000
0000
0100
0000
0000
0000
0000
0000
0000
0000
0000
,
0010
0000
0000
0000
0011
0000
0000
0000
0100
0000
0100
0010
0000
0000
1000
0000
,
0000
1000
0010
0000
1000
0000
0000
0000
,
1010
0000
1010
0000
0100
0001
0000
0100
0010
0000
1000
0000
0000
0100
0000
0000
,
0110
1000
0000
0001
0000
1000
0000
0010
0000
1000
0000
0100
0000
0110
0000
0000
,
0000
0000
1000
0000
0010
1000
0000
0010
1000
0000
0000
0000
0000
0100
0000
0010
,
0000
0001
0010
1000
0000
0000
1010
0110
,
0000
0010
0011
1010
0000
0110
0101
1010
,
0000
0000
0100
0010
0010
1000
0000
0010
1000
1000
0010
0000
1000
0200
0000
0000
,
0000
0300
0000
0000
1000
0000
0000
0010
0100
0000
0010
0000
0000
0000
0100
0000
,
0010
0000
0100
0000
0000
1000
0000
0002
0000
0003
0000
0100
0000
0000
0010
1000
,
0000
0000
0000
0000
0100
0000
0000
0000
1010
0000
0000
0100
0000
0000
0000
0001
,
0000
0000
0010
0000
0011
0000
0000
0220
0000
0000
0000
0000
0000
0000
0000
0000
,
0000
0000
0000
0000
0000
0000
0000
0000
0000
0000
0000
0000
0000
0330
0000
0000
,
0000
1010
0000
0000
0100
0010
0000
1000
0000
0001
1000
0000
0010
0000
2020
0000
,
0000
0000
0000
0000
0000
0000
3030
0000
0000
0000
0000
1010
0000
0000
0000
0000
,
1000
0000
0010
1000
0000
0000
0001
0100
0000
0010
0000
1000
0010
0000
1000
0000
,
0010
0000
0000
0100
0000
0000
0000
0000
0000
0000
0000
0011
0000
0000
0100
0000
,
0010
1000
0000
0010
1000
0000
0001
1000
0001
0100
0010
1000
0000
0001
1000
0001
,
1000
0000
1000
0200
0000
0000
0000
0000
0300
0000
0000
1010
0000
0000
0100
0000
,
0001
0000
0100
0010
0000
1000
0010
1000
0000
0001
0100
0000
0010
1000
0000
0010
,
1000
0000
0000
0200
0000
0000
0000
0000
0000
0300
0000
0001
0000
0000
0010
0000
,
0010
0000
0001
0000
0000
0010
0000
0000
0000
0000
0000
1010
0000
0000
0100
0000
,
0010
0000
0100
0001
0000
1000
0000
0000
0000
0000
0000
0000
1000
0000
0000
1010
,
0000
1000
0010
1000
0000
0100
0000
0000
0010
0001
0000
0010
0001
0000
0100
0000
,
0010
0100
0000
0020
0000
0000
0000
0000
0000
0030
0000
1000
0000
0000
1010
0000
,
1010
0000
0001
0000
0100
0000
0010
1000
0010
0000
1000
0000
0100
0001
0000
0100
,
0001
0100
0000
0010
0000
0000
0000
0000
0000
0000
0000
1010
0000
0000
0000
1100
,
0001
0100
0000
0010
1000
0000
0010
1000
0100
0000
0000
0010
0000
0100
0000
0001
,
0000
1000
0000
0020
0000
0000
0000
0000
0030
0000
0000
1000
0000
0000
0010
0000
,
1000
0000
0000
1010
0000
0100
0001
0000
0000
0010
0000
1000
0000
0000
0000
0000
,
1010
0000
1010
0000
0000
0101
0000
0101
0000
0010
0000
1010
0000
0000
0000
0000
,
0000
0101
0000
0000
0110
0000
0110
0000
1010
0000
1010
0000
0110
0000
0000
0000
,
0101
0000
0101
0000
0001
0000
0101
0000
0000
0000
1010
0000
0000
1010
0000
0000
,
1010
0000
1010
0000
1010
0000
0001
0000
0000
0011
0000
0000
0000
0011
0000
0000
,
0100
0010
0000
1000
0000
0001
0000
1000
0001
0000
0100
0000
0000
1010
0000
0000
,
0000
1010
0000
0100
0000
0001
0000
0100
0000
0010
0000
1000
0000
0000
0000
1010
,
0000
1010
0000
1010
0000
1010
0000
0000
0000
1001
0000
0000
0000
0000
0000
0000
;
